Hunterrr Full Movie Download In 720p WEB-DL HD Quality Encoded In x264 MKV.

Hunterrr Full Movie Download Direct 720p HD x264 In Hindi

Details Of Full Length Free Videos

Title: Hunterrr 2015 Movie
Genres: Comedy | Romance
Country: India
Language: Hindi
Release Date: 20 March 2015
Quality: 720p WEB-DL x264
Format: MKV
Size: 1.2-GB

IMDb

Storyline

Hunterrr Full Movie Download Free 720p HD Mandar Ponkshe is an ordinary guy, meaning there is hardly anything extraordinary about him. He is maybe 5’8″ or 5’9″. He dresses very un-dandily if there was such a term, wears a goatee to hide what could be considered a weak chin. Mandar does not attract attention because he wants to be seen as ordinary. But behind that facade is a story – of an interesting past life that has been led. His single-minded pursuit of girls, tall and short, stout or with a pout. Hunterrr Movie Download In HD He’s funny unconventionally without meaning to be witty. His friends have lost all hope of him settling down, as they know that he doesn’t plan to. And then suddenly he meets someone whom he starts liking… and falls in love with. What will happen now? Will she know about his past? Will he able to hide his Hunterrrr reputation? The story of a guy, who doesn’t want to grow up!

About Hunterrr 2015 Film:

Hunterrr Movie Free Download is a 2015 Indian adult comedy film written and directed by Harshavardhan Kulkarni. The film features Gulshan Devaiah, Radhika Apte and Sai Tamhankar in lead roles. The film revolves around an unassuming sex addict and his lustful journey in life. The film was released on 20 March 2015. The film was remade in Telugu as Babu Baga Busy (2017) with Srinivas Avasarala in the lead role.

Hunterrr Full Movie Cast:

  • Gulshan Devaiah as Mandar Ponkshe
  • Radhika Apte as Tripti Gokhale
  • Sai Tamhankar as Jyotsna Surve
  • Sagar Deshmukh as Dilip “Yusuf” Ponkshe
  • Veera Saxena[8] as Parul Kotak
  • Rachel D’Souza as Shobha N. T.
  • Vaibbhav Tatwawdi as Kshitij
  • Suraj Jagan as Chaxx
  • Sandeep Dhabale as Mandar’s friend
  • Neena Kulkarni as Mandar’s mother
  • Ravindra Mankani as Mandar’s father
  • Pratibha Date as Tripti’s mother
  • Dilip Vengurlekar as Tripti’s father
  • Nitesh Pandey as Deepak Surve, Jyotsna’s husband
  • Hansa Singh as Savitha Sahay
  • Subhadip Raha as the policeman

Critical Reception

On review aggregator website Rotten Tomatoes the movie has an approval score of 67% on the basis of 6 reviews with an average rating of 5.7 out of 10. Hunterrr Full Movie Download Rajeev Masand didn’t like the portrayal of women in the film saying that the movie shows them as “desperate-for-marriage becharis, or unhappy frustrated housewives. The sexist stereotyping is one thing; more offensive is the fact that the women in the film are uniformly dumb.” Rajeev gave the film a rating of 2 out of 5 and said that, “Too bad the film itself is promising but ultimately disappointing. A film, that in the end, delivers little else but cheap laughs.” Shubhra Gupta of The Indian Express gave the film a rating of 2 out of 5 saying that, “‘Hunterr’ could have been a genuinely ‘adult’ comedy of manners, but it stays right where it begins, the phrase ‘coming-of-age’ functioning more as eliciting an embarrassed titter than reaching the goal-post.” Meena Iyer of The Times of India gave the film a rating of 3 out of 5 and said that, Download Hunterrr 2015 Full Movie In HD”Investing a bit more on real emotions of the lead characters, instead of fast-forwarding to their baser instincts constantly, would have made the film more relatable.” Faiza S Khan of The Guardian gave the film a rating of 3 out of 5 and said that, “This sex comedy’s lead is creepy and cringeworthy, but at least the film manages to take a small step away from the genre’s usual crass misogyny”.

MKV File Details

MKV File Details

Video
ID : 1
Format : AVC
Format/Info : Advanced Video Codec
Format profile : [email protected]
Format settings, CABAC : Yes
Format settings, ReFrames : 3 frames
Codec ID : V_MPEG4/ISO/AVC
Duration : 2 h 20 min
Bit rate mode : Variable
Bit rate : 1 058 kb/s
Maximum bit rate : 40.0 Mb/s
Width : 1 272 pixels
Height : 544 pixels
Display aspect ratio : 2.35:1
Frame rate mode : Constant
Frame rate : 25.000 FPS
Color space : YUV
Chroma subsampling : 4:2:0
Bit depth : 8 bits
Scan type : Progressive
Bits/(Pixel*Frame) : 0.061
Stream size : 1.03 GiB (91%)
Title : …..::::: TaRa ::::::…..
Language : Hindi
Default : Yes
Forced : No
===================================================================
Audio
ID : 2
Format : AAC
Format/Info : Advanced Audio Codec
Format profile : LC
Codec ID : A_AAC
Duration : 2 h 20 min
Bit rate : 96.0 kb/s
Channel(s) : 2 channels
Channel positions : Front: L R
Sampling rate : 48.0 kHz
Frame rate : 46.875 FPS (1024 spf)
Compression mode : Lossy
Delay relative to video : 9 ms
Stream size : 96.1 MiB (8%)
Title : …..::::: TaRa ::::::…..
Language : Hindi
Default : Yes
Forced : No

Images, Screenshots Of Full Episodes

Some Images Of Hunterrr Hindi Movie 720p WEB-DL x264 HD

Hunterrr Full Movie Download Direct 720p HD x264 In Hindi

Hunterrr Full Movie Download Direct 720p HD x264 In Hindi

Hunterrr Full Movie Download Direct 720p HD x264 In Hindi

Hunterrr Full Movie Download Direct 720p HD x264 In Hindi

Watch The Full HD 720p, 1080p Movie Trailers

Watch Hunterrr Full Movie Download Trailer

Direct Download Links Of Hunterrr Full Movie In 720p HD Given Below

Free Download Direct Links HD

Direct Links For Premium Users

If you are the member of this site then enter your login details and Enjoy Direct Links

Leave a Reply

Your email address will not be published. Required fields are marked *

Check Also

Free Birds (2013) 720p BluRay x264 Esub [Hindi + English] – 600 MB

Free Birds Full Movie Download In Hindi + English Dual Audio 720p BluRay HD Quality Encode…